Video | DEM BUON TINH LE Karaoke.avi | DEM BUON TINH LE Kara

Video (0.05 seconds)

Thông báo phim mới qua Email
(Có thể ngừng nhận bất kỳ lúc nào)

DEM BUON TINH LE Karaoke.avi

From Youtube.com - Posted: Sep 06, 2012 - 36,527 views
Video | DEM BUON TINH LE Karaoke.avi | DEM BUON TINH LE Karaoke.avi
DEM BUON TINH LE Karaoke.avi
DEM BUON TINH LE Karaoke.avi
Thời lượng: 04 phút 42 giây 
Xem Phim
tải lên bởi :PHOTO-CAMERA TRẺ Giồng Trôm-BếnTre ĐT:0753 861704 Đ:0913 184 502 yahoo ([email protected])
(Source: youtube.com).
de xem phim nhanh hon
Like để nhận phim mới mỗi ngày!
Videos Khác:

ĐOẠN CUỐI TÌNH YÊU karaoke.avi

tải lên bởi:PHOTO-CAMERA TRẺ Giồng Trôm - Bến Tre D(T:0753 861 704 DĐ:0913 184 502 yahoo([email protected])
114,952 views | Sep 07, 2012
video

Karaoke Đôi Mắt Người Xưa.

274 Lượt Like và 712.029 Lượt View. Cảm ơn các Bác nhiều lắm. 21H06 GMT Hà Nội 21042015.
725,727 views | Sep 27, 2013
video

KHÔNG BAO GIỜ QUÊN ANH âm thanh chuẩn

Nhận thực hiện karaoke , tân . cổ .nhạc theo yêu cầu:liên hệ:0908.460.999.hoặc G-MAIL [email protected] .thực hiện beat nhạc .cổ (âm thanh chuẩn)..
70,936 views | Jun 11, 2013
video

SƯƠNG TRẮNG MIỀN QUÊ NGOẠI KARAOKE

45,609 views | Oct 03, 2011
video

LỄ VU QUY DIỄM TRINH MINH HIẾU

tải lên bởi: PHOTO-CAMERA TRẺ Giồng Trôm-Bến Tre ĐT 0753 861 704 DĐ:0913 184 502 yahoo([email protected])
3,729 views | Sep 08, 2012
video

Những Đồi Hoa Sim Karaoke

shop dia leminh beat karaoke
118,977 views | Mar 01, 2013
video

Karaoke Tạ Từ Trong Đêm Đan Nguyên ft Hà Thanh Xuân

Xem thêm tại : http:karaokenhacvang.blogspot.com Karaoke Tạ Từ Trong Đêm - Đan Nguyên ft Hà Thanh Xuân,Karaoke Tạ Từ Trong Đêm - Đan Nguyên ft Hà Thanh Xuân,Karaoke Tạ Từ Trong Đêm - Đan Nguyên ft Hà Thanh XuânKaraoke Tạ Từ Trong Đêm - Đan Nguyên ft Hà Thanh Xuân,Karaoke Tạ Từ Trong Đêm - Đan Nguyên ft Hà Thanh Xuân,Karaoke Tạ Từ Trong Đêm - Đan Nguyên ft Hà Thanh Xuân
72,369 views | Apr 29, 2014
video

NHỮNG ĐỒI HOA SIM âm thanh chuẩn

Phòng thu âm KTS LÊ HỮU Chuyên Thu âm ca hát ,mix giọng hát gởi qua Gmail thu âm giọng hát làm CD lưu niệmnhận thực hện karaoke theo yeu cầu ĐT :0908.460.999
88,381 views | Jul 09, 2013
video

HAI MÙA MƯA . âm thanh chuẩn

PHÒNG THU ÂM :LÊ HỮU. chuyen thuc hien karaoke theo yeu caulien he;dt.0908.460.999 hoac E- MAIL [email protected] http:youtu.beoT4BDHXuhNA http:youtu.beuRNk7-v7TpI
535,375 views | May 08, 2013
video

Linh Hồn Tượng Đá Karaoke.avi

tải lên bởi: PHOTO-CAMERA TRẺ Giồng Trôm - Bến Tre ĐT:0753 861 704 DĐ:0913 184 502 yahoo([email protected])
208,188 views | Sep 08, 2012
video

ĐỒI THÔNG HAI MỘ âm thanh chuẩn

Cùng chia sẻ đam mêmoi nhu cau xin lien he : 0908.460.999
162,701 views | Jul 09, 2013
video

ĐỪNG NÓI XA NHAU âm thanh chuẩn

MOI NHU CẦU XIN LIEN HE DIA CHI GMAIL-. [email protected]:youtu.beIW0gxOusOek
194,362 views | Jul 13, 2014
video

Karaoke LK Nhạc sống Nhớ Nhau Hoài HD Organ beat 11

Beat Gunyzero & Nghĩa Nguyễ̃n https:www.facebook.comnguyen.tanluc.5030 1.Nhớ nhau hoài 2.Về đâu mái tóc người thương 3. Chờ người vào cuộc chiến
258,137 views | Aug 22, 2013
video

Karaoke Đêm Buồn Tỉnh Lẻ.

Video ID : 1 Format : AVC FormatInfo : Advanced Video Codec Format profile : [email protected] Format settings, CABAC : No Format settings, ReFrames : 1 frame Codec ID : avc1 Codec IDInfo : Advanced Video Coding Duration : 4mn 44s Bit rate : 21.0 Mbps Nominal bit rate : 278 Mbps Width : 1 280 pixels Height : 720 pixels Display aspect ratio : 16:9 Frame rate mode : Constant Frame rate : 25.000 fps Color space : YUV Chroma subsampling : 4:2:0 Bit depth : 8 bits Scan type : Progressive Bits(Pixel*Frame) : 0.910 Stream size : 712 MiB (99%) Writing library : x264 core 118 Encoding settings : cabac=0 ref=1 deblock=1:0:0 analyse=0x1:0x111 me=dia subme=0 psy=0 mixed_ref=0 me_range=16 chroma_me=1 trellis=0 8x8dct=0 cqm=0 deadzone=21,11 fast_pskip=1 chroma_qp_offset=0 threads=4 sliced_threads=0 nr=0 decimate=1 interlaced=0 bluray_compat=0 constrained_intra=0 bframes=0 weightp=0 keyint=250 keyint_min=25 scenecut=0 intra_refresh=0 rc=abr mbtree=0 bitrate=277590 ratetol=1.0 qcomp=0.60 qpmin=10 qpmax=51 qpstep=4 ip_ratio=1.40 aq=0Audio ID : 2 Format : AAC FormatInfo : Advanced Audio Codec Format profile : LC Codec ID : 40 Duration : 4mn 44s Bit rate mode : Variable Bit rate : 132 Kbps Maximum bit rate : 138 Kbps Channel(s) : 2 channels Channel positions : Front: L R Sampling rate : 48.0 KHz Compression mode : Lossy Stream size : 4.50 MiB (1%)
43,538 views | Nov 11, 2013
video

ĐÊM BUỒN TỈNH LẺ âm thanh chuẩn

Cùng Chia sẽ đam mê: mọi nhu cầu xin liên hệ G-MAIL: [email protected] đtdđ: 0908.460.999
33,628 views | Jun 24, 2013
video

Disclaimer: VideosViet.Com is a video search engine that indexing and organizing videos on the web. Everyday 1,000+ new videos, phim, ca nhac, hai kich, phong su.

© 2015 - VideosViet.Com